Vintage Drum Elements has a nice, warm analogue sound that so many vintage drum machines have. The band has honed its live show into a tight thrash with sample-based experimentation as an equal ingredient to its sound. Big Fish Audio develops loops, download loops, drum loops, sample packs, royalty free loops and virtual instruments. A highlight for the band on. LIMN by Limn, released 23 July 2019 1. Regulator 10. I’ve opened up the Ivory Bunker Samplepacks page a couple of months ago with the idea of sharing some of the sounds I’ve recorded or created over the last couple of years. They are ideal for anyone mixing rock, punk, and pop. Black Metal, Death Metal, Metalcore, Deathcore, Thrash Metal, Hardcore, Punk, Grunge, Doom, Grindcore, Post Metal, Emo, Heartland Rock, Industrial. Dirty Hair 8. crow's perch stem clips by black midi, released 01 April 2019 1. The full three track EP is due to be released on the 18 th of September on 10” red vinyl and CD. inspired by only the rudest guitar driven LA Punk, NY Punk, UK Punk, Ska, Hardcore, PostPunk and New Wave from the early and up to mid eighties. Long Valley Road A 6-song EP, the follow-up release from the award winning Seattle folk-rock duo Diamondwolf. I’m already familiar with drums-and-noise “happenings” inciters Sly & The Family Drone (with their all-in approach to audience drumming participation), the triple-headed avant-garde women’s sketchpad V Ä L V Ē (with their scope running from reed-honking prog to post-punk glee singalongs to homemade instrumentation – see multiple. Empty Sleeve 7. Name your price or enter your email to grab it on the Single Cycle Bandcamp. Sample libraries for Kontakt and beyond. In his Ker Landelle Studios in France, he's a meticulous recordist and multi-instrumentalist, using everything at his disposal—guitars, sequencers, and sample. de Gentse Rock Rally. A classic post-punk drum beat, inspired by Joy Division's "Love will tear us apart". 16-bit version has same number of loops, but smaller total file size. Kynsvelt 3. Holger Czukay, Jah Wobble, Jaki Liebezeit Full Circle. Tracks 9-11 are bonus mixes not found on the cassette. Black Metal, Death Metal, Metalcore, Deathcore, Thrash Metal, Hardcore, Punk, Grunge, Doom, Grindcore, Post Metal, Emo, Heartland Rock, Industrial. Mandatory listening. AP is the nation's leading voice on underground, alternative, punk music and youth culture both in print and online since 1985. 2K ⋅ Social Engagement 223 ⋅ Domain Authority 78 ⋅ Alexa Rank 44. The 11 songs on ‘Welcome to Bobby’s Motel’ don’t just invite you to move your body; they command you to. The Pretenderizer 6. The Arturia Beatstep comes to mind as a cool little controller with pads-another option is an AKAI MPX16 (under $200 with pads and can be loaded up with industrial drum samples). Drill`n`bass is detached from dance drum and bass for its accurate elaboration of every detail. Expect to find a vast amount of high quality samples ranging from snares, kicks, hats, risers, falls, claps, crashes toms, TR-808 drums and more. Freedom in the Way 2. Choroby to podróże ubogich (Diseases are the journeys of the poor) 5. not the "true" Goth Punk of the 70s and 80s. 7 Inch EP, released 08 October 2013 1. Started as Punk and Rock'n Roll band. We've got the best sample packs for House, Techno, Drum & Bass, EDM and loads more, with live music sample packs and instrument sample libraries to embellish and develop your unique sound. Nothing New 6. Stream ad-free or purchase CD's and MP3s now on Amazon. Miguel Morte Valentine King Demon/ MMV - Saxploitation by King Demon/ MMV - Saxpliotation Demo, released 03 June 2017 1. I got some brass samples from the net and put something together. synth 1 11. Based on a custom JVC. Demise In Twilight Remembrance EP (Sample), released 09 January 2015 The Kansas City outfit push a face-melting merger of screamo, post-hardcore, sludge metal, and avant-garde rock. Bouncing from 8-bit synth to plunger mute trombone on “The Flipper” and jungle samples on “Rainforest Romp” Premium Vanilla is an uptempo adventure that walks a thin line between whimsical and insane. Album 88 is the student-run radio voice of Georgia State University, broadcasting 24/7 from Student Center West. Pleasure Explanation 5. They are ideal for anyone mixing rock, punk, and pop. Poison Kontrol Loads of intoxicating licks from guitars, bass, keys, drums and more. As for how to "think" in terms of the post punk drumming language, I would say. Amethblowl 8. Aren't Any Words 2. VIBES 13 – Post Punk Sample Pack WAV. Hunter Drawing inspiration from musical styles such as Post-Rock, Electronic, Synth, Krautrock,and Post-Punk. Comedy punchline rimshot. Post-punk, in and of itself, is a fairly liberating genre. The free punk loops, samples and sounds listed here have been kindly uploaded by other users. Funk Hip Hop R&B MIDI Drum Loops. Perennial Bulb 2. Shoot First. so many options these days- a Golden age. Kickstart your next project with samples from Ultra 80's Drum Kit by Zenhiser. WAV Samples recorded at 24-Bit/48kHz. Holger Czukay, Jah Wobble, Jaki Liebezeit Full Circle. If you use any of these punk loops please leave your comments. Eoins formerly known as "lack of Eoins" gathered in late 2005. 99Sounds is proud to release 99 Drum Samples, a multi-genre collection of free drum samples in 24-bit WAV format. 0 % Test CRC 11BDC581 Copy CRC 11BDC581 Track not present in AccurateRip database Copy OK Track 8 Filename D:\EAC\The Drums - The Drums\08 It Will All End in Tears. 0 % Test CRC F073704E. Sebastian Bendix Author, musician, screenwriter, weirdo. CLUSTER for ZEBRA 2. It is kinda post-rockish, sorta noise-rockish and a little prog/math-ish on the side. I quit this band to form another post-punk band around 1979, The Mothmen. WAV format includes punchy Kick, Snare & Toms and Gritty Cymbals. Post-punk rhythms waltz in Nécromensonges, and send us to the floor with every new turn of the grid. Socially Cleansed 3. We combined ‘Punk Drums V1′ and ‘Punk Drums V2′ in this bundled Mega Pack. Brexit wrecks and acid freaks reach the end of time. All in all, I feel like the end result doesn’t really resemble any other band. Exercise Your Demons, Pt. Eoins formerly known as "lack of Eoins" gathered in late 2005. All of my loops are copyri. ALL ACIDized WAV. Pleasure Explanation 5. Tones created on web-based virtual synths, samplers, sequencers and drum machines. Drill`n`bass is detached from dance drum and bass for its accurate elaboration of every detail. supported by 30 fans who also own “Post-Natal Abortion Demo” You wake up in a vomit pile. The Rifle Nelene: vox/guitar Kevin: bass Nicky: drums! The Joy of Missing Out, released 01 August 2020 I’m shut in But not for the first time Just trying to do what’s right this time The whole world on pause But is she waiting?. Drummer for 10 years from Ireland with a background based in rock and funk. Newman’s only other de facto solo outing was the mid-1990s release Bastard , an almost entirely instrumental release with tracks largely built from guitar loops and samples. Modsdive from in this world Four Wet Hands, released 13 September 2018 1. The free punk loops, samples and sounds listed here have been kindly uploaded by other users. Trisomie 21 is a post punk band formed in 1981 by Phillipe Lomprez (vocals, drums) and Hervé Lomprez (guitar, electronics), two brothers from Abscon, in the North of France. Poison Kontrol Loads of intoxicating licks from guitars, bass, keys, drums and more. Heavy use of electronic drums, synthesizers while maintaining a dark rock vibe. Affordable and search from millions of royalty free images, photos and vectors. so many options these days- a Golden age. lloyd clipston - drums. 'Ultra 80's Drum Kit' has been an absolute pleasure for us to make. Kickstart your next project with samples from Ultra 80's Drum Kit by Zenhiser. Hypno5e is a avant-garde Metal band that formed in Montpellier, France in 2003. All free Rock samples are available to download 100% royalty free for use in your music production or sound design project. Representing the honorary island of West Seattle. Artificial Waves is a Russian post-rock band established in 2012 and since then experimenting with contemporary instrumental music in various genres from ambient to metal. It covers genres such as rock, dance, drum and bass, dub, reggae, Ethiopian, post-punk, kraut rock, pop, psychedelia and even this time r'n'b and dubstep. Sometimes you need gentler taps on the drums, other times you want the smack of an overdrive kit. Now in its 13th year, the band has moved toward a minimal post-punk approach, in contrast to its electronic, sample-heavy beginnings. ‘Space Museum’ is an unveiling of atmospheric, minimalist post punk supported by bright melodies. Early Detroit Techno 'No UFOs' embodies the mantra that there's no such thing as too much cowbell. Standing on Both Sides 6. Black Metal, Death Metal, Metalcore, Deathcore, Thrash Metal, Hardcore, Punk, Grunge, Doom, Grindcore, Post Metal, Emo, Heartland Rock, Industrial. Vintage Drum Elements has a nice, warm analogue sound that so many vintage drum machines have. Public Library. A lot of UK Post Punk/goth bands made heavy use of the early Boss Dr Rhythm drum machines (March Violets, Sisters, Nephilim etc). Holger Czukay, Jah Wobble, Jaki Liebezeit Full Circle. Echo Chamber 6. Michael Foster Michael Foster is a saxophonist and multi-instrumentalist utilizing extensive preparations of his saxophone, augmenting it with amplification, objects, balloons, drum heads, vibrators, tapes, and samples as a method of subverting and queering the instrument’s history and traditional roles. Feel free to use it for any purpose you like. favorite this post Aug 29 Looking for rapper to collaborate remotely (New Orleans) hide this posting restore restore this posting. Dirty Hair 8. Ratterman is the final wild card, using guitars and samples in unexpected ways that feel both post-punk and experimental. Get the best sample packs, loops, synths, bass, vocals, drum kits and sound libraries with the help of AI. Left Side 5. Find album reviews, stream songs, credits and award information for Dark Continent - Wall of Voodoo on AllMusic - 1981 - In some ways, Dark Continent is Wall of Voodoo's…. 2K ⋅ Social Engagement 223 ⋅ Domain Authority 78 ⋅ Alexa Rank 44. We combined 'Punk Drums V1′ and 'Punk Drums V2′ in this bundled Mega Pack. These four Leeds lads started up in the late '70's in the wake of punk but tore the music into a whole new dimension. 100 Kick Drums in various genres. Influences and sound: Marilyn Manson, The Sisters of Mercy, Nine Inch Nails, She Past Away, Pink Turns Blue, New Order, Joy Division, LCD Soundsystem, etc. by High Fidelity, released 13 November 2017 Tell me secrets through the sound of a melody Her body was washed up by the rain So I couldn’t find her Dear Father, I just can't follow your trail I blew up every wall where we began, Shaking my own blurry foundations The smell of spring starts Now lies are paper planes I'm a drowned forest Burning in a lake I’m a lost boy, lost. This Rock Drum Kit in. International Anthem 4. Being Different Like everybody Else 6. 1000's of Grooves. The Free Music Archive offers free downloads under Creative Commons and other licenses. Continued Saxus 4. Fusing reckless, manic energy with painstaking precision, the record is part post-punk, part art-pop, and part dance floor acid trip, hinting at everything from Devo to Gang of Four as it boldly careens through genres and decades. Azbest (Asbestos) 2. 12 Percussion Loops. LIMN by Limn, released 23 July 2019 1. 80s Punk & New Wave Punk and so called: "New Wave" tracks with construction kit method phrases & loops. My main genre is punk rock, and hardcore, but as a professional musician, music educator, and composer, I am adept to most styles of music. With these core sounds, abetted by. Cool, modern and fast-paced beat with aggressive, energizing live guitar riffs and an edgy drum rhythm coming togeth. They began composing songs at the age of 16 while studying at school. Yesterday's Spit 3. Church Of Foaming Mouths 3. Drum by Gold Class. Expect to find a vast amount of high quality samples ranging from snares, kicks, hats, risers, falls, claps, crashes toms, TR-808 drums and more. Celebrating 40 years of the TR-808 Drum Machine It’s hard to believe that a drum machine introduced in 1980 would still be celebrated today by lovers of culture, music, and design. Julien Gracq. Shoot First. VIBES 13 – Post Punk Sample Pack WAV Loopmasters present the latest addition to the esteemed VIBES series: Post Punk! This collection draws from the simplicity of punk music tradition and its subsequent Avant. No Boredom A dark, mysterious and organic band from Montreal. Blind Aim 6. VIBES 13 – Post Punk Sample Pack WAV. Demon Seed 2. If there is an ACR sound, it’s a blend of urban funk and something more indefinable, existential and melancholy, but they have ricocheted from post-punk to Latin grooves to techno and electro-funk. I need a heavier darker sound so I use a DAM Meathead into the Low input on my amp, with the Master dimed and the Volume turned up so the amp is just starting to break up. The Curves are a french post-punk band born in 2017. Piero Peluche’s pop wobble punk remix of Kara Square’s Stay @ Home is delightful and inspiring. A classic post-punk drum beat, inspired by Joy Division's "Love will tear us apart". by High Fidelity, released 13 November 2017 Tell me secrets through the sound of a melody Her body was washed up by the rain So I couldn’t find her Dear Father, I just can't follow your trail I blew up every wall where we began, Shaking my own blurry foundations The smell of spring starts Now lies are paper planes I'm a drowned forest Burning in a lake I’m a lost boy, lost. Prenez mes Poireaux 2. Easy catchy hook on this, and a promising start. 2K ⋅ Social Engagement 223 ⋅ Domain Authority 78 ⋅ Alexa Rank 44. Post No Bills by Post No Bills, released 05 December 1985 1. CROTCH crotch can talk now Pure Shit, released 21 June 2019 1. actually sample anything besides that opening drum. Cello Fury is a rarity in the… Wolfram Huschke. Poison Kontrol Loads of intoxicating licks from guitars, bass, keys, drums and more. Thus, post-punk was born. Punk: post punk songs. The Third Hand 5. When PiL rolled into town we jumped at the chance to chat with the post-punk drum hero as we endeavoured to find out all about PiL past, present and future. by the time it climaxes in a cyclone of post-punk energy. Coming out blazing with “Greetings”, a wall of reverb feedback gives way to a funky little groove setting the tone for the album. For $50 per tune (up to 4 minutes), and $5 each additional minute, I will record drums in my home studio, edit them to your liking, and send you a file of excellent sounding drums. Regulator 10. The first line-up of Durutti Column released only two songs from the first Factory Records EP named A Factory Sample. At Modern Samples, our philosophy is quality, not quantity as we strive to deliver the best drum samples online. Booking: [email protected] Put bluntly, the LP is a magical post-punk masterpiece: while the group's earliest work had a gritty Warsaw/Crisis feel, Utopia is a lush and shimmering document of doomy greatness, firmly in the ballpark of The Sound or early 4AD output. cycle decay/cycle 7" to be released through hozac records 2014. favorite this post Aug 29 Looking for rapper to collaborate remotely (New Orleans) hide this posting restore restore this posting. Threat to Sobriety 9. Fans of Public Image LTD, Blondie, The Clash, Killing Joke and many more will be sure to enjoy this one. ccMixter’s Speck opines, “Fantastic! Whether dancin’ at home or walkin’ on the sun. Start with a 14-day free trial, then just $7. Drum Werks XXX Punk Drum Loops Stats: 469 (586 MB) original, license-free 24/44 drum loops. 130 Apple Loops for Garageband and. 8 MB The library is based on 46 flute samples with tempo and key information. 1000 Homo DJs was one of Al Jourgensen’s many short-lived side projects, which amounted to two 12″ releases in total – Apathy in 1988 and Supernaut in 1990. There are thousands of free drums backing tracks to find on YouTube, but having a nice sorted list of them would come in handy I guess. It`s characterized by complicated drum structure and samples from famous «amen» breakbeat. Cruel Face of Anime (split with ExExGxDx and HRD) by Houkago Grind Time, released 14 February 2020 1. I do post my music there occasionally, but I spend more time than that posting useful content which helps people remember my name. Sample Packs/Remix Stems Grime, Dubstep & Drum ‘n’ Bass house samba post-metal horror punk diva house brooklyn indie canadian electropop brega japanese. Browse our collection of free guitar samples, guitar loops, sample packs, acoustic guitar sounds, electric guitar samples and rifffs. … Sango Drum Kit Installment 2 WAV. Vekora In the lonely sands of commerce comes another musical adventure for your listening pleasure. go to album. A Place Between 5. Squalling and sardonic, post-punk ripped out the rebellious core of punk in the late ’70s and took it in a new, experimental direction. Get Away 2. Decency by PUBLIC INTEREST, released 20 March 2020 There's burning garbage out in the streets reaching for common decency can't afford the city can't afford to leave where do we go?. Loopmasters present the latest addition to the esteemed VIBES series: Post Punk! This collection draws from the simplicity of punk music tradition and its subsequent Avant Garde permutations to bring you a perfectly cohesive selection of instrument parts for 100% royalty free use in your music. If you use any of these punk loops please leave your comments. Punk Archive kept by the D. Nervous Language 2. The free punk drum loops, samples and sounds listed here have been kindly uploaded by other users. "Named for the eerie vibe they set out to create, Unnatural Causes is a refreshingly unique approach to an often-sterile genre. It's October! Time to do a Halloween song! Mall Got Cop Mix 1 MallGothCop. Vökuvísa 5. VIBES 13 – Post Punk Sample Pack WAV. Mandatory listening. On The Bullet 4. The Spire 4. Rites and Rituals is an instant classic paying respect to 80's post-punk bands from Chameleons to Gene Loves Jezebel with a modern twist and stand-out vocals. Rockin' post-punk, pre-emo from Lubbock! And it's free to you, because we love you! SAND WHICH IS at the time of this recording Katherine Thrift - vocals Brooks Harlan - guitar, vocals Rob Thrift - bass Scott Tiemann - drums Recorded summer 1997 by Grandmaster Ratte' at MMMedium's Audio Sweat Shop/cDc communications, Lubbock, TX Originally. The Driver 3. Hypno5e's lineup is:Emmanuel Jessua - Vocals & GuitarJeremie Lautier - GuitarGredin - Vocals & BassThibault Lamy - Drums & Samples. O, Su Yung 4. MasterYourMix has teamed up with Smack Drum Samples to bring you an exclusive pack of FREE drum samples. lloyd clipston - drums. Find album reviews, stream songs, credits and award information for Dark Continent - Wall of Voodoo on AllMusic - 1981 - In some ways, Dark Continent is Wall of Voodoo's…. Long Pig 3. Sample libraries for Kontakt and beyond. Loopmasters present the latest addition to the esteemed VIBES series: Post Punk! This collection draws from the simplicity of punk music tradition and its subsequent Avant Garde permutations to bring you a perfectly cohesive selection of instrument parts for 100% royalty free use in your music. Post-punk was reliant on unique rhythmic interactions, for instance, but Young Marble Giants simplified it, taking out the drums and leaving only the barest of drum machine loops to play with and. post punk drum synth? Hi, lately I have been looking for a specific sound for my post punk project. Jellyhead Música psicodélica de la ciudad de Rosario. Punk's various origin stories have been documented ad infinitum, and through them, the movement's myriad influences have been enshrined in a familiar proto-punk canon. Older I Get 6. VOX EX MACHINA 2. guitar 3 10. I quit this band to form another post-punk band around 1979, The Mothmen. Caravan (2001) by Percy, released 05 May 2001 1. experimental. VIBES 13 – Post Punk Sample Pack WAV Loopmasters present the latest addition to the esteemed VIBES series: Post Punk! This collection draws from the simplicity of punk music tradition and its subsequent Avant Garde permutations to bring you a perfectly cohesive selection of instrument parts for 100% royalty free use in your music. Kickstart your next project with samples from Ultra 80's Drum Kit by Zenhiser. Download Drum stock photos. No Boredom A dark, mysterious and organic band from Montreal. VIBES 13 – Post Punk Sample Pack WAV. Vandal Moon Vandal Moon is inspired by the darker acts of the post-punk & darkwave scene of the early 80's. 0 % Track quality 100. Hypno5e's lineup is:Emmanuel Jessua - Vocals & GuitarJeremie Lautier - GuitarGredin - Vocals & BassThibault Lamy - Drums & Samples. Once you know which drums trigger which slots, you can then go ahead and load in some drum samples to those slots. 16-bit version has same number of loops, but smaller total file size. De deelname aan de moeder aller Rock Rally’s – die van den humo dus – mag tot op heden een ware triomftocht heten. Ascended Masters 2. At Modern Samples, our philosophy is quality, not quantity as we strive to deliver the best drum samples online. Vocalist, Rhythm Guitar, Drums, Keyboard, DJ, Electronic Music. Maura - Vocals, Bass Bengt - Guitar, Vocals Joe - Drums, Vocals. 234 (256 MB) multi-velocity drum and cymbal samples. Just Let Me Sleep 11. Marbles by flowerbomb, released 17 April 2017 My body it is unworthy Every touch is marbles underneath my skin I'm sorry I'm so sorry I am so dirty I let him in He won't touch me now Can't even touch myself How far can I avoid it Never long we're hypocrites A child laughs with her family My gut sinks inside me it's innocence My body it has deceived me Now you'll kiss me and. cycle decay/cycle 7" to be released through hozac records 2014. Sample and MIDI Performance Expansion for EZdrummer 2, and Superior Drummer 2. Impossible Dream 2. Going In! 7. Forward/Back 3. With tempos between 135-155bpm, this collection will work perfectly with any post-punk or new wave-inspired music you’re working on. Inspired by bands such as Clutch, Queens of the Stone Age, Franz Ferdinand, Soundgarden, Radiohead and Rush. International Anthem 4. Slaying The Wooly Ibex 4. AKA "post-punk revival" or "new rock revolution" is a style of indie rock inspired by the 'garage rock' of the 1960's and the post-punk movement of the 1980s. Shattered Frame 6. Stream ad-free or purchase CD's and MP3s now on Amazon. Start with a 14-day free trial, then just $7. Download free sfx for immediate use in your multimedia project. AKA "post-punk revival" or "new rock revolution" is a style of indie rock inspired by the 'garage rock' of the 1960's and the post-punk movement of the 1980s. Death March 5. For the first time the group uses a drum machine, synths and sampled sounds. MasterYourMix has teamed up with Smack Drum Samples to bring you an exclusive pack of FREE drum samples. Loopmasters present the latest addition to the esteemed VIBES series: Post Punk! This collection draws from the simplicity of punk music tradition and its subsequent Avant Garde permutations to bring you a perfectly cohesive selection of instrument parts for 100% royalty free use in your music. Tendinite Come Right Here EP1 Punk, Garage. The original incarnation passed through a rotating cast of characters centered strongly by the vision and experimental guitar of founding member Kent Cates. Hypno5e have so far released 1 album and 1 Ep. Drum by Gold Class. All Tracks (116) Post-Punk Tracks Using Samples; Post-Punk Tracks that were Sampled; Post-Punk Cover Songs; Drum Homage Medley by Red Hot. Read the loops section of the help area and our terms and conditions for more information on how you can use the loops. Individual Hits (No Loops) Neotec Elite Mic Pres were used for tracking. When PiL rolled into town we jumped at the chance to chat with the post-punk drum hero as we endeavoured to find out all about PiL past, present and future. LIMN by Limn, released 23 July 2019 1. so many options these days- a Golden age. Two Cats 3. If you use any of these punk loops please leave your comments. For fans of the B52s, Wire, A Frames and Cows. Hymn do zera (The anthem to zero) 3. You enjoy a 20%. VIBES 13 – Post Punk Sample Pack WAV Loopmasters present the latest addition to the esteemed VIBES series: Post Punk! This collection draws from the simplicity of punk music tradition and its subsequent Avant. Edwin Birdsong (right, with Stevie Wonder), the acclaimed jazz and funk musician whose music has been sample by Daft Punk, DJ Premier and more, has died at age 77. Gothic Beat 140 Wav | Free-Loops. Heavy use of electronic drums, synthesizers while maintaining a dark rock vibe. Frend Influencers. go to album. Corvid Canine - Predictive Text 4. benjamin murphy - bass b1, b3. You wipe the crust from your eyes with cracked, and bleeding hands. Threat to Sobriety 9. The Spire 4. Jeweled Cave 4. com website. Affordable and search from millions of royalty free images, photos and vectors. 65 Wet Drum loops. Dissolve The Floor 3. Joke drum sound. It’s full of songs that always feel like they are moving faster than they are. 7 Inch EP, released 08 October 2013 1. Various Drum Kits – 1,000 Samples – 500 kicks, 500 snares, 350 hi-hats, 50 claps. Post Punk: is a broad type of rock music that emerged from the punk movement of the 1970s, in which artists departed from the simplicity and traditionalism of punk rock to adopt a variety of avant. The Snake, Untaped 5. The music combines drum machines and synths with acoustic guitar and toy drums whilst also experimenting with samples between tracks. Drill`n`bass is a quite popular style of electronic music that roots in the mid `90s drum and bass. As for how to "think" in terms of the post punk drumming language, I would say familiarize yourself with this style by going back and digging through the late 70's/early 80's. Synths, Guitar and Drum Machine. Start with a 14-day free trial, then just $7. L'Étranger 3. group explore post-punk. The latter saw Jourgensen and other members of Ministry collaborating with Trent Reznor of Nine Inch Nails to cover the 1972 Black Sabbath delight Supernaut. 6) Agent Side Grinder (A/X) – Oh the delicious post punk infused stabbing drum beats. Beat Fetish provides actual drums and grooves that were programmed and recorded during sessions from lauded post-punk producers of the last 25 years. All samples are free to use in your Productions. Rather than a hard-fast rush with anti-everything lyrics, Gang of Four reconfigured the whole guitar-bass-drum line-up into a harsh, funky sound with distraught, politically-tinged slogans atop. We’ve got everything from Free Logic and Ableton Templates right through to free drum loop packs and even presets for Massive. Download Drum stock photos. … Sango Drum Kit Installment 2 WAV. The Curves are a french post-punk band born in 2017. The #1 site for Serum presets, Samplepacks, & more. You can get some clean pulse out of your snare drum by looking in the 200-400Hz area. Representing the honorary island of West Seattle. Say How You Feel 5. pop punk should be called "buzz pop", because when using a term like "pop punk", the real pop punk kids must constantly defend their bands by saying "it's pop punk, but not that shit on MTV. Online sound effects library. Crystalline 7. Kelimutu 3. That means you can easily mix and match the loops from both sample packs to create your desired song structure. Unnatural Causes is Greater Sirens' debut full-length album. If you use any of these punk loops please leave your comments. We also offer a very large repository of free birthday songs you can use in your projects. This EP is a sample of what is to come: the debut album CORRIDORS OF GENDER. All Tracks (116) Post-Punk Tracks Using Samples; Post-Punk Tracks that were Sampled; Post-Punk Cover Songs; Drum Homage Medley by Red Hot. wav Pre-gap length 0:00:02. Sample libraries for Kontakt and beyond. But he is best known as a. Looking for pop punk sounding drum samples. International Anthem 4. In the Middle 5. Tired of punk’s basic building blocks of blues-based guitar riffs and traditional song structures, forward-thinking artists of the late ’70s and early ’80s turned to disco, Krautrock, free jazz and other previously unimaginable influences to lay down a set of experiments still reverberating to this day. Poison Kontrol Loads of intoxicating licks from guitars, bass, keys, drums and more. We combined ‘Punk Drums V1′ and ‘Punk Drums V2′ in this bundled Mega Pack. Bacchae Bacchae, pronounced Bock·Eye, are a punk band from Washington, D. KVR Audio News: Cluster Sound has released KB-800, a synth/drum/fx collection based on the vintage JVC KB-800, a sophisticated polyphonic preset-based synthesizer with PCM drums and auto-accompaniment, designed for Synth Pop, Italo Disco and Electro. AP is the nation's leading voice on underground, alternative, punk music and youth culture both in print and online since 1985. MasterYourMix has teamed up with Smack Drum Samples to bring you an exclusive pack of FREE drum samples. On The Shelf 3. Dripping 10. Standing on Both Sides 6. cycle decay/cycle 7" to be released through hozac records 2014. Howl Of Mermaids is the solo project of Aurora Desmond. Here's what you get with 'Punk Drum Samples V2' 130 Loops in (Acidized) WAV file format. Without Words 3. iElectribe and DM1(fingerlab) are good options on an iPad. Both of these sample packs were recorded in the same session with the same drummer and drum kit. It's characterized by heavy guitars, fast tempos and non-traditional song structures. it seems your definition and mine share a few good points, but i'm defining "new" Goth Punk. Get premium, high resolution news photos at Getty Images. Derrick May’s seminal track ‘No UFOs’ pioneered strong rhythmic features, such as pounding drum kicks, electric claps, and an increased tempo, alongside the characteristic electronic samples and distortions of Post-Punk. If you use any of these punk loops please leave your comments. 2K ⋅ Social Engagement 223 ⋅ Domain Authority 78 ⋅ Alexa Rank 44. It's October! Time to do a Halloween song! Mall Got Cop Mix 1 MallGothCop. Originally called "new musick", the terms were first used by various writers in the late 1970s to describe groups moving beyond punk's garage rock template and into disparate areas. It includes everything from the snotty '60s garage-rock bands compiled on Lenny Kaye's Nuggets compilation to the metallic Motor City soul of the MC5 to the sleazy glam of the New York…. It`s characterized by complicated drum structure and samples from famous «amen» breakbeat. Great Post-Punk makes you feel like you’re in love and peeing on an electric fence at the same time. The group’s motley mix of surf rock, new wave, girl group, and post-punk sounds confused critics and audiences alike, but The B-52s’ sophomore album, Wild Planet, was about to live up to their. This sample pack gives you punk rhythms that span a range of three different tempos. 8 MB Mat Zo is a Grammy-nominated producer who is known for his forward-thinking sound that effortlessly blends influences spanning drum & bass, EDM, trance, and future house. so many options these days- a Golden age. Start with a 14-day free trial, then just $7. Skeleton Woman 3. Groove Bias Mini by Impact Soundworks – A free 150MB version of the large Groove Bias drum sample library, available in Kontakt format. Vorig jaar winnaar van ‘De Beloften’ a. Ascended Masters 2. Poison Kontrol Loads of intoxicating licks from guitars, bass, keys, drums and more. AKA "post-punk revival" or "new rock revolution" is a style of indie rock inspired by the 'garage rock' of the 1960's and the post-punk movement of the 1980s. Representing the honorary island of West Seattle. Standing on Both Sides 6. Church Of Foaming Mouths 3. But he is best known as a. "Named for the eerie vibe they set out to create, Unnatural Causes is a refreshingly unique approach to an often-sterile genre. Fusing reckless, manic energy with painstaking precision, the record is part post-punk, part art-pop, and part dance floor acid trip, hinting at everything from Devo to Gang of Four as it boldly careens through genres and decades. cajm - synth - b1, b3; outro synth - a2, additional synth - a1, a2; + mix help & samples on a1, a2. guitar 2 9. I do post my music there. 0 % Test CRC 11BDC581 Copy CRC 11BDC581 Track not present in AccurateRip database Copy OK Track 8 Filename D:\EAC\The Drums - The Drums\08 It Will All End in Tears. Up Beat Heavy (BPM 189) 3. 6 years of music history between guitar players, with a fresh spin of rhythm on bass and drums, drive the NH natives away from their past projects with a clear sound and strong themes of life. 80s Punk & New Wave Punk and so called: "New Wave" tracks with construction kit method phrases & loops. Download Free Drum Kits 2020 and More! Our Free Drum Kits have been used in countless major placements! Industry quality sounds designed by award-winning music producers. Incorporating their twin bass guitar sound, unconventional percussion, and more toy keyboards than could fill a toddler’s playroom, there is an experimental edge to the 10-track set that works in tandem. Finally, these days, drum machines can offer a lot of extra features. Brexit wrecks and acid freaks reach the end of time. 12 Percussion Loops. Comedy punchline rimshot. 7 Inch EP, released 08 October 2013 1. Heavy Water (I'd Rather Be Sleeping) 5. Electro music- is a hybrid of electronic music and funk. Efficient drums / Hooky bass lines / Angular guitars / Indie voices Creating catchy songs. Dissolve The Floor 3. Having built a substantial record collection, graphic designer Dan Whitford decided, on a whim, to design beats and samples. Human Condition by Bruxa Maria, released 29 May 2016 1. Jellyhead Música psicodélica de la ciudad de Rosario. Give your answer to this question below!. Stop Looking 3. All Tracks (116) Post-Punk Tracks Using Samples; Post-Punk Tracks that were Sampled; Post-Punk Cover Songs; Drum Homage Medley by Red Hot. Drummer for 10 years from Ireland with a background based in rock and funk. WAV format includes punchy Kick, Snare & Toms and Gritty Cymbals. 58 Peak level 98. Miguel Morte Valentine King Demon/ MMV - Saxploitation by King Demon/ MMV - Saxpliotation Demo, released 03 June 2017 1. Tired of punk’s basic building blocks of blues-based guitar riffs and traditional song structures, forward-thinking artists of the late ’70s and early ’80s turned to disco, Krautrock, free jazz and other previously unimaginable influences to lay down a set of experiments still reverberating to this day. A boomy kick drum can also cloud up the clarity of your kick drum sound, so it’s usually a good idea to cut around 200 – 250 Hz if you feel there is too much muddiness in your kick drum sound. Being Human Released in 2001 by Mook records of Leeds this release was Percy's follow up to a millennium eve's release of 'Donny Rednecks' (see SBOTY). go to album. Both of these sample packs were recorded in the same session with the same drummer and drum kit. "M1 A1" started out as a jam with Damon on guitar and Cass Browne on drums. inspired by only the rudest guitar driven LA Punk, NY Punk, UK Punk, Ska, Hardcore, PostPunk and New Wave from the early and up to mid eighties. ;Track List:1. 03 Jun 2020 | 289. Hypno5e have so far released 1 album and 1 Ep. I quit this band to form another post-punk band around 1979, The Mothmen. The first line-up of Durutti Column released only two songs from the first Factory Records EP named A Factory Sample. Anti-Vision Punk/Strange from Vegas. Sample Demographic Breakdown MACROVIEW The visualization below shows the age, sex, and location demographics of the total sample (1,460 respondents combined from both studies) in addition to the breakdown of how participants tend to use music most and what music they like to use to fulfill these purposes (broadly categorized). The Slits - Cut (1979). Beaten By the Target - 4 The single unveiled publicly before the release of the EP, and labeled as post-punk, still kind of sounds like a Who Sell-Out thing to me. Willamette Week “[T]he ironically titled Fun may feature some of the most achingly personal material that Logan may have arguably ever released” The Joy of Violent Movement “[G]oth-tinged, post-punk dreamscapes of blunt drum machines, throbbing bass and sharp guitars. ccMixter’s Speck opines, “Fantastic! Whether dancin’ at home or walkin’ on the sun. Glass Ceiling 3. Gritty, synthy, driving, washy, and most importantly, melodic. The band's first singer was Milan Manojlović - Mance. Brendan Sellers - Vocals Saxon Perez - Guitar Robbie Malvin - Drums Alan Madrigal - Bass Anti-Vision, released 25 May 2018 1. er / Goodbye Used drive : hp CDDVDW SH-216AL Adapter: 1 ID: 0. The trio, made up of Brian Porter (voice, guitar, electronics), Matthew Johnson (bass, guitar) and Patrick Gough (drums) will be releasing a new record. I got some brass samples from the net and put something together. Nothing New 6. With Dead Can Dance and as a solo artist, Brendan Perry is revered for his ability to conjure majestic sounds that draw as much from his post-punk roots as they do traditional music. Trisomie 21 is a post punk band formed in 1981 by Phillipe Lomprez (vocals, drums) and Hervé Lomprez (guitar, electronics), two brothers from Abscon, in the North of France. Vekora In the lonely sands of commerce comes another musical adventure for your listening pleasure. Browse Post-Punk Music. ;Track List:1. DataDrive has released 80s Retro Futuristic Drum Pack, a free drum kit designed for 80s and synthwave producers. On The Bullet 4. Initially a form of independent music, it was based on small labels with low budgets which produced lo-fi rock records. Post Punk is available for download for £24. Listen to albums and songs from Liars. Action Camp is a Pittsburgh-based trio who blends elements of doom, post-punk and art rock. Old people's pop-punk by Tyler, Katie, and Dylan. The Driver 3. Shoot First. English post-punk women's band The Raincoats, from left: Palmolive on drums, Vicky Aspinall, Ana da Silva, and Gina Birch, rehearse in their West London squat, 1979. Post navigation ← VIBES 13 – Post Post Punk Sample Pack au audioplugin audiotorrentz audioz Construction Kits cracked vst plugins drum kit Drum Loops. One of my favorite albums of 2015, Lardo's "GUNMETAL EYES" is also one of the best recordings I've found on Bandcamp. They are ideal for anyone mixing rock, punk, and pop. Corvallis, Oregon. This sample pack gives you punk rhythms that span a range of three different tempos. Joy Division even asked their producer to replicate the drum sound on Low for their first EP (without access or knowledge of Brian Eno's Eventide Harmonizer they could only imitate it, but I digress). Drum by Gold Class. Juniper EP by Of Mermaids, released 26 April 2020 1. Howl Of Mermaids is the solo project of Aurora Desmond. Berlin-based synth-punk band Mexican Radio hosts a one hour show featuring synth & post punk, Neue Deutsche Welle and New Wave artists. Here are a few classics that could help establish the foundations of a small-but-versatile collection of snare drums for any studio. 0 % Track quality 100. 17 tracks take you through a real journey of shockingly original pulsating sounds that tie to Punt b ut sound more accomplished and distinctive in style. Online sound effects library. 16-bit version has same number of loops, but smaller total file size. Groove Bias Mini by Impact Soundworks – A free 150MB version of the large Groove Bias drum sample library, available in Kontakt format. 130 Apple Loops for Garageband and. Holger Czukay, Jah Wobble, Jaki Liebezeit Full Circle. Vocalist, Rhythm Guitar, Drums, Keyboard, DJ, Electronic Music. The Letterbomb 7. Loopmasters present the latest addition to the esteemed VIBES series: Post Punk! This collection draws from the simplicity of punk music tradition and its subsequent Avant Garde permutations to bring you a perfectly cohesive selection of instrument parts for 100% royalty free use in your music. Other recent output on his 30 Hertz Records label – including Maghrebi jazz with Moroccan duo MOMO, and the The Nippon Dub Ensemble – show how Wobble continues to push musical boundaries. Start with a 14-day free trial, then just $7. The Fucking Tide 7. The Hills Ran Red 6. Great vocals and sense of melody. Now in its 13th year, the band has moved toward a minimal post-punk approach, in contrast to its electronic, sample-heavy beginnings. At Modern Samples, our philosophy is quality, not quantity as we strive to deliver the best drum samples online. A Place Between 5. Mandatory listening. Habit is Comfort 6. I think it's more of intended divergence drum traditional punk. Pop Punk 14; Pop Rap 1; pop rock 14; pop-country 1; pop-punk 2; pop-rap 3; Pop-Rock 10; Poppin 1; Poppunk 1; popular 3; popularity 2; porter robinson 1; Portugal 1; Portuguese 1; post 1; post black 1; Post Grunge 1; post hardcore 6; Post Metal 2; post punk 21; post rock 22; Post Rpck 1; Post-britpop 1; Post-hardcore 3; Post-Mariachi 1; post. Nervous Language 2. Scans from 120 slide film using my Mamiya 7 hand held are usually 32 mpx to 40 mpx non-drum scans. The band's first singer was Milan Manojlović - Mance. Show me a post-rock band that’s entirely instrumental and I’ll show you five that use vocals and/or vocal samples. mp3 This is my first attempt at doing post punk/goth rock. Must-Have Snare Drum #1: Aluminum Shell, Standard-Size The Signature Model: Ludwig Supraphonic 14” x 5” The Ludwig Supraphonic is arguably the most-recorded snare drum in history. Demo 2017 by Leaden Times, released 17 April 2017 1. Looking for pop punk sounding drum samples. These drums were recorded exclusively by Platinum selling mixer and producer Marc McClusky (known for his work with Weezer, Motion City Soundtrack, Bad Religion and more). actually sample anything besides that opening drum. Squalling and sardonic, post-punk ripped out the rebellious core of punk in the late ’70s and took it in a new, experimental direction. Incorporating their twin bass guitar sound, unconventional percussion, and more toy keyboards than could fill a toddler’s playroom, there is an experimental edge to the 10-track set that works in tandem. Anti-Vision Punk/Strange from Vegas. "M1 A1" started out as a jam with Damon on guitar and Cass Browne on drums. Stream ad-free or purchase CD's and MP3s now on Amazon. and soft programmed drums. It includes everything from the snotty '60s garage-rock bands compiled on Lenny Kaye's Nuggets compilation to the metallic Motor City soul of the MC5 to the sleazy glam of the New York…. We’ve got the best sample packs for House, Techno, Drum & Bass, EDM and loads more, with live music sample packs and instrument sample libraries to embellish and develop your unique sound. Wrong Pig 7. repairs decay/cycle 7", released 15 june 2014 1. With tempos between 135-155bpm, this collection will work perfectly with any post-punk or new wave-inspired music you’re working on. The Library. I think of post pick in a decent way but the way. 6 years of music history between guitar players, with a fresh spin of rhythm on bass and drums, drive the NH natives away from their past projects with a clear sound and strong themes of life. 0 % Test CRC 11BDC581 Copy CRC 11BDC581 Track not present in AccurateRip database Copy OK Track 8 Filename D:\EAC\The Drums - The Drums\08 It Will All End in Tears. May 12th, 2008 thx1138. The band's first singer was Milan Manojlović - Mance. 2 MB: 3:03: 594: 10/11/2005. Our little tribute to the great Mac Miller! I also made a small sample pack for producers and artists to download, based on the drum parts used in the beat of this song. Gothic Beat 140 Wav | Free-Loops. A punk anomaly in New York's mid 90's punk scene, the Skabs dared to stray from the glue-n-spikes vision shared by the majority of the punk scene at the time, added a synthesizer that became more prominent as the band progressed, and adopted heavily post-punk inflected songs, as influences like the Poison Girls, Metal Urbain, and polish punk. Duck The Punk & The Jerky Jerks - Lady Death 6. 6 comments. Experience includes performing on an album, 2 EPs and a number of singles. The latter saw Jourgensen and other members of Ministry collaborating with Trent Reznor of Nine Inch Nails to cover the 1972 Black Sabbath delight Supernaut. As a result, be sure you know if the drum machine you are going for is a standalone machine or requires a computer. oh nanashi, you forgot to include the Cure in your bands of early goth punk. This library is provided free of charge for personal or commercial use. Joke stinger. Kynsvelt 3. Bible Black Isn't An Age Appropriate Game To Buy Your Kids 3. "Home" was released November 10, 2018 and "Dare" was released on February 8th, 2019. O, Su Yung 4. Daft Punk’s “Get Lucky” snags #4 spot on most played songs of the 2010s. Hunter Drawing inspiration from musical styles such as Post-Rock, Electronic, Synth, Krautrock,and Post-Punk. go to album. The musical style of Karg is a furious, hysteric mixture of Atmospheric Black Metal and a huge load of Post Rock, with influences also from Grunge, Shoegaze and Post Punk. I’m already familiar with drums-and-noise “happenings” inciters Sly & The Family Drone (with their all-in approach to audience drumming participation), the triple-headed avant-garde women’s sketchpad V Ä L V Ē (with their scope running from reed-honking prog to post-punk glee singalongs to homemade instrumentation – see multiple. supported by 29 fans who also own “S/T ep” Reviving 80s style New Wave / Post Punk or Gothic Rock is something that happened regularly in the last 30 years - but Death Rock is something I haven't heard of, let alone any serious try on reviving that sub-genre before. Synths, Guitar and Drum Machine. Expect to find a vast amount of high quality samples ranging from snares, kicks, hats, risers, falls, claps, crashes toms, TR-808 drums and more. The line up includes Jorge Arevalo Mateus on guitar, Mick Oakleaf on drums, and Shin Sakaino on bass. 00 Or $3 /month § for 36 months. Check out The Drums by Drums on Amazon Music. Alcoholocaust 7. Death March 5. Cry of The Martyrs 3. Century Eyes 4. You may have to register before you can post: click the register link above to proceed. Everything Ugly 10. The trio, made up of Brian Porter (voice, guitar, electronics), Matthew Johnson (bass, guitar) and Patrick Gough (drums) will be releasing a new record. Buy The Exquisite Post Punk by dreikelvin on AudioJungle. Steel Drum Percussion Room. Get Instrumental Sounds from Soundsnap, the Leading Sound Library for Unlimited SFX Downloads. 00 Or $3 /month § for 36 months. Nína Systir 8. I think of post pick in a decent way but the way. On Your Own "Kinder" is the first of three EPs Goodbye Berlin released in 2017-2019. You are swamped in festering excrementia, crawling among waves, and piles of grime and caked filth. If you use any of these punk drum loops please leave your comments. Coolidge Indianapolis-based rock band Coolidge delivers catchy, original, post-punk-pop. With the Meathead on it is loud as f***, chunky and heavy. May 12th, 2008 thx1138. Filename D:\EAC\The Drums - The Drums\07 Down By the Water. Paper Sun 5. The Gotobeds: Post-Punk Revivalists With Pittsburgh Pride Even with a deal from Seattle's Sub Pop Records, the rabble-rousing quartet remain loyal to their hometown Rachel Brodsky // May 25, 2016. go to album. If you use any of these punk loops please leave your comments. Vijfkoppige post punk formatie die hoog scoort in de categorie ‘erg-goed-bezig’. Tendinite Come Right Here EP1 Punk, Garage. New Circle West Coast '19, released 04 March 2019 1. Threat to Sobriety 9. the biggest oxymoron of the 21st century. Habit is Comfort 6. Download free sfx for immediate use in your multimedia project. In September 2018 the bloggers Aural Aggrivation said "it encapsulates the spirit of punk and the band’s blistering live energy" well, we couldn't put it better than that. Ekki Sleppa 9. 6 comments. by High Fidelity, released 13 November 2017 Tell me secrets through the sound of a melody Her body was washed up by the rain So I couldn’t find her Dear Father, I just can't follow your trail I blew up every wall where we began, Shaking my own blurry foundations The smell of spring starts Now lies are paper planes I'm a drowned forest Burning in a lake I’m a lost boy, lost. I think of post pick in a decent way but the way. It includes 466 jazz club loops, 12 crunk synth loops, 235 songwriter loops, 50 guitar loops, 50 Battery drum loops, 721 electro house loops, 350 minimal house loops, 294 'filthy hippy' loops, 303 Hi-NRG loops, 500 loungecore loops, and 38 dubstep basslines. The Underside of Power 4. The band combines the angularity and spareness of post-punk with classic punk angst and the simplicity of Beat Happening to create a familiar, appealing sound. synth 1 11. Synthrotek Atari Punk Console!! | Atari Punk Console, 8 Step Analog Sequencer kits and 16 Step Analog Sequencer kits for sale, Atari Punk Consoles, 16 Step Sequencers, 8 Step Sequencers says: July 12, 2012 at 2:13 pm.